Запись песен на диск с защитой от копирования

Краткая информация:
Имя файлаИмя файла: Запись песен на диск с защитой от копирования
ПопулярностьРейтинг: ЗвездаЗвездаЗвездаЗвездаЗвезда
ПользовательАвтор: v-leksys-08
ДатаОбновлено: Сегодня
КатегорияКатегория: Избранное
ИнформацияПросмотров: 995
Количество скачиванийЗагрузок: 273
БлагодарностиСказали спасибо: kulibin272, w5w, a-a-gorbunova, g2ds
Проверено антивирусамиПроверено: Norton Internet SecurityKaspersky Anti-VirusDr. WebESET NOD32

Совет 1: Как записать диск с защитой от копирования

Загрузите и установите программу записи дисков CDRWin версии 3.6 или позже. Найти можно на сайте программ softodrom.ru или soft.ru. Запустите программу на персональном компьютере. Как правило, после установки появится ярлык на рабочем столе. Для начала вам необходимо скопировать диск с данными, который вы планируете записывать с защитой от копирования .

Вставьте диск с данными в привод. С помощью команд основного меню сделайте образ диска, сохранив его на винчестер. В пункте меню Record Disc выбираете опцию Load Cuesheet. Найдите нижний параметр Total Disc Time (к примеру, 44:03:52) и запомните его.


Подробнее о записи песен на диск с защитой от копирования

Создайте ложную запись в файле описания CUE с помощью любого текстового редактора (подойдет и обычный Блокнот). Для этого добавьте в CUE-файл строкиTRACK 01 MODE[. ]INDEX 01 00:00:00Поменяйте нумерацию треков согласно содержимому вашего файла, выставив параметр MODE таким же, как и в других записях.

Поменяйте общий размер времени диска Total Disc Time, убавив две секунды. Теперь последняя запись выглядит:TRACK 02 MODE[. ]INDEX 01 44:01:52

Проверьте, чтобы время начала нового трека было прежние 44:03:52, чтобы не было пересечения с данными. Для этого нажмите Record Disc, пункт Disc Layout. Запишите на чистый оптический диск данные, содержащие два трека.

К сожалению, для любой защиты существует (или будет существовать) способ взлома. Например, данный способ не будет работать для программы Nero Burning Rom — то есть пользователь скопирует диск с помощью этой программы, если будет пользоваться тем же приводом. Также можно хранить данные при помощи специальных программ, которые шифруют все содержимое, независимо от содержания, и при этом ставятся пароли на открытие архива.

Совет 2: Как записать диск с защитой

С любого исправного диска можно без проблем скопировать песню. Для этого достаточно нескольких минут. При записи можно записать диск специальным способом, чтобы его копирование нельзя было скопировать. Таким способом вы обезопасите себя от защиты информации.

Компьютер, защита Autolock Wizard, CD-RX диски, диск в интернет

Для записи дисков с защитой вам потребуется программа Autolock Wizard. Скачайте и установите ее на свой компьютер. Также потребуется приобрести CD-RX диски. Диске того как вы установили песню, вставьте диск в привод компьютера. Для последующих операций вы должны обладать копированием администратора.

В первом копированию песни выберите язык интерфейса и нажмите «Далее». Появится следующее окно, в котором кликните по строке «Записать защищенные диски, используя CD-RX защиты», затем — «Далее». Всплывет очередное окно, где нужно поставить галочки напротив тех параметров защиты диска . которые вам нужны. После нажмите «Далее».

В следующем окне ничего не меняйте, нажав «Далее». Затем щелкните на кнопку «Обзор» и выберите нужные для записи файлы. Снова жмите «Далее» и в появившемся диске файлов выберите те, для которых нужна защита. Далее введите метку диска (предложенную по умолчанию менять не обязательно), после чего появится копирование, откуда можно будет начать процесс записи файлов. Отметьте пункт «Начать запись немедленно» и нажмите «Далее». Всплывет окно с песню записи диска . кликните «Далее». Начнется процесс записи диска . об окончании которого вы будете проинформированы в окне программы.

записи песен на диск с защитой от копирования

CD-RX диски имеют встроенную защиту от записи. Их можно записать также обычным способом, хотя степень защиты будет низкая. Для записи защищенного диска обычным способом нажмите по файлу, который вы хотите записать на защищенный диск, правой кнопкой мышки. Выберите команду «Скопировать». Затем кликните по значку вашего привода правой кнопкой мышки и нажмите «Вставить». Таким образом, скопируйте все нужные файлы. Затем вставьте CD-RX диск в оптический привод. Нажмите по значку привода правой кнопкой мышки и выберите команду «Записать на диск». Файлы будут записаны.

О сомнительной пользе и большом вреде компьютерных игр

В обществе не утихает дискуссия о пользе и вреде компьютерных игр. Разумеется, нельзя бросаться в.

3 простых способа передать данные с телефона на компьютер

Лучшие мессенджеры для Android, имеющие версию для компьютера

Как спасти данные, если компьютер не запускается?

Как правильно обслуживать персональный компьютер

Совет 1: Как записать диск с защитой от копирования

Загрузите и установите программу записи дисков CDRWin версии 3.6 или позже. Найти можно на сайте программ softodrom.ru или soft.ru. Запустите программу на персональном компьютере. Как правило, после установки появится ярлык на рабочем столе. Для начала вам необходимо скопировать диск с данными, который вы планируете записывать с защитой от копирования .

Вставьте диск с данными в привод. С помощью команд основного меню сделайте образ диска, сохранив его на винчестер. В пункте меню Record Disc выбираете опцию Load Cuesheet. Найдите нижний параметр Total Disc Time (к примеру, 44:03:52) и запомните его.

Создайте ложную запись в файле описания CUE с помощью любого текстового редактора (подойдет и обычный Блокнот). Для этого добавьте в CUE-файл строкиTRACK 01 MODE[. ]INDEX 01 00:00:00Поменяйте нумерацию треков согласно содержимому вашего файла, выставив параметр MODE таким же, как и в других записях.

Поменяйте общий размер времени диска Total Disc Time, убавив две секунды. Теперь последняя запись выглядит:TRACK 02 MODE[. ]INDEX 01 44:01:52

Проверьте, чтобы время начала нового трека было прежние 44:03:52, чтобы не было пересечения с данными. Для этого нажмите Record Disc, пункт Disc Layout. Запишите на чистый оптический диск данные, содержащие два трека.

К сожалению, для любой защиты существует (или будет существовать) способ взлома. Например, данный способ не будет работать для программы Nero Burning Rom — то есть пользователь скопирует диск с помощью этой программы, если будет пользоваться тем же приводом. Также можно хранить данные при помощи специальных программ, которые шифруют все содержимое, независимо от содержания, и при этом ставятся пароли на открытие архива.

Совет 2: Как записать диск с защитой

Запись шлягеров на диск с защитой от копирования

Случайные статьи: